<?xml version="1.0" standalone="no"?>
<!DOCTYPE svg PUBLIC "-//W3C//DTD SVG 1.1//EN" "http://www.w3.org/Graphics/SVG/1.1/DTD/svg11.dtd" >
<svg xmlns="http://www.w3.org/2000/svg">
<metadata>
Created by FontForge 20120731 at Tue Apr 26 17:31:33 2016
 By admin
</metadata>
<defs>
<font id="easemobim" horiz-adv-x="1024" >
  <font-face 
    font-family="easemobim"
    font-weight="500"
    font-stretch="normal"
    units-per-em="1024"
    panose-1="2 0 6 9 0 0 0 0 0 0"
    ascent="896"
    descent="-128"
    x-height="580"
    cap-height="800"
    bbox="0 -224 1024 800"
    underline-thickness="50"
    underline-position="-100"
    unicode-range="U+0041-0078"
  />
<missing-glyph 
d="M34 0v682h272v-682h-272zM68 34h204v614h-204v-614z" />
    <glyph glyph-name=".notdef" 
d="M34 0v682h272v-682h-272zM68 34h204v614h-204v-614z" />
    <glyph glyph-name=".null" horiz-adv-x="0" 
 />
    <glyph glyph-name="nonmarkingreturn" 
 />
    <glyph glyph-name="A" unicode="A" 
d="M512 629q92 0 171 -45.5t124.5 -124.5t45.5 -171t-45.5 -171t-124.5 -124.5t-171 -45.5t-171 45.5t-124.5 124.5t-45.5 171t45.5 171t124.5 124.5t171 45.5z" />
    <glyph glyph-name="B" unicode="B" 
d="M495 203q0 -8 4.5 -12.5t12.5 -4.5q17 0 17 17l17 254v2q0 14 -10 24t-24 10t-24 -10t-10 -24zM512 151q-14 0 -24 -10t-10 -24t9.5 -24t24.5 -10q14 0 24 10t10 24t-10 24t-24 10z" />
    <glyph glyph-name="C" unicode="C" 
d="M717 493q12 -12 0 -24l-386 -386q-12 -12 -24 0t0 24l386 386q12 12 24 0zM331 493l386 -386q12 -12 0 -24t-24 0l-386 386q-12 12 0 24t24 0z" />
    <glyph glyph-name="D" unicode="D" 
d="M657 407q-10 0 -18 -7.5t-8 -17.5t8 -18t18 -8t18 8t8 18t-8 17.5t-18 7.5zM367 407q-10 0 -18 -7.5t-8 -17.5t8 -18t18 -8t18 8t8 18t-8 17.5t-18 7.5zM512 83q-64 0 -116 35.5t-75 94.5q-4 10 2 15q4 7 13 7h350q7 0 14 -7q4 -7 1 -15q-21 -59 -73 -94.5t-116 -35.5z
M364 203q23 -40 62 -63t86 -23t86 23t62 63h-296zM512 595q127 0 217 -90t90 -217t-90 -217t-217 -90t-217 90t-90 217t90 217t217 90zM512 629q-92 0 -171 -45.5t-124.5 -124.5t-45.5 -171t45.5 -171t124.5 -124.5t171 -45.5t171 45.5t124.5 124.5t45.5 171t-45.5 171
t-124.5 124.5t-171 45.5z" />
    <glyph glyph-name="E" unicode="E" 
d="M512 629q-92 0 -171 -45.5t-124.5 -124.5t-45.5 -171t45.5 -171t124.5 -124.5t171 -45.5t171 45.5t124.5 124.5t45.5 171t-45.5 171t-124.5 124.5t-171 45.5zM748 269l-110 -174q-5 -10 -18 -10h-216q-13 0 -18 10l-110 174q-5 11 0 22l110 174q5 11 18 11h217
q14 0 19 -11l61 -98q6 -12 0 -23l-17 -27l-90 -145q-5 -10 -19 -10h-126q-14 0 -19 10l-58 94q-3 5 -0.5 9t9.5 4h131l90 144q3 5 0.5 9t-8.5 4h-167q-14 0 -19 -10l-84 -135q-5 -11 0 -22l84 -135q5 -10 19 -10h170q14 0 19 10l91 147l15 26q2 4 7.5 4t7.5 -4l9 -14
q10 -15 2 -24z" />
    <glyph glyph-name="F" unicode="F" 
d="M307 305h410q17 0 17 -17t-17 -17h-410q-17 0 -17 17t17 17z" />
    <glyph glyph-name="G" unicode="G" 
d="M869 501q-6 6 -12 0q-3 -3 -84.5 -79t-176 -163.5t-118.5 -108.5q-2 0 -5 1q-21 17 -80 70.5t-107 97.5t-50 46q-6 6 -12 0t0 -12l240 -241q5 -5 14 -5t14 7l375 375q5 6 2 12z" />
    <glyph glyph-name="H" unicode="H" 
d="M517 621l80 -239q0 -4 5 -4l243 -6q4 0 5.5 -4t-2.5 -7l-193 -155q-3 -3 -1 -7l70 -244q1 -4 -2.5 -6.5t-6.5 -0.5l-200 145q-3 4 -6 0l-200 -145q-4 -2 -7 0.5t-2 6.5l70 244q0 5 -1 7l-193 155q-3 3 -2 7t5 4l243 6q5 0 5 4l80 241q1 2 5 1.5t5 -3.5z" />
    <glyph glyph-name="I" unicode="I" 
d="M273 312q10 0 19 -9l338 -338q8 -8 18.5 -8t18.5 8l169 169l154 -153v-103q0 -28 -20 -48t-48 -20h-820q-28 0 -48 20t-20 48v205l220 220q9 9 19 9zM273 346q-23 0 -43 -17l-220 -222q-10 -10 -10 -24v-205q0 -42 30 -72t72 -30h820q42 0 72 30t30 72v103q0 13 -10 24
l-154 153q-10 11 -23.5 11t-24.5 -11l-163 -164l-333 333q-19 19 -43 19zM922 766q28 0 48 -20t20 -48v-495l-135 134q-8 9 -18.5 9t-19.5 -9l-150 -150q-8 -8 -18.5 -8t-18.5 8l-338 338q-9 9 -19 9t-19 -9l-220 -220v393q0 28 20 48t48 20h820zM674 442q46 0 78.5 32
t32.5 78.5t-32.5 78.5t-78.5 32t-78.5 -32t-32.5 -78.5t32.5 -78.5t78.5 -32zM922 800h-820q-42 0 -72 -30t-30 -72v-393q0 -22 20 -31q6 -3 14 -3q14 0 24 10l215 215l333 -333q17 -17 43 -17q22 0 42 17l145 145l130 -129q10 -10 24 -10q8 0 14 3q20 9 20 31v495
q0 42 -30 72t-72 30zM674 476q-32 0 -54.5 22.5t-22.5 54.5t22.5 54t54.5 22t54.5 -22t22.5 -54t-22.5 -54.5t-54.5 -22.5z" />
    <glyph glyph-name="J" unicode="J" 
d="M404 532l195 -195q21 -20 21 -48t-21 -49l-195 -196v488z" />
    <glyph glyph-name="K" unicode="K" 
d="M620 44l-195 196q-21 21 -21 49t21 48l195 195v-488z" />
    <glyph glyph-name="L" unicode="L" 
d="M657 501q-36 0 -60.5 -24.5t-24.5 -60.5t24.5 -60.5t60.5 -24.5t60.5 24.5t24.5 60.5t-24.5 60.5t-60.5 24.5zM657 365q-22 0 -36.5 14.5t-14.5 36.5t14.5 36.5t36.5 14.5t36.5 -14.5t14.5 -36.5t-14.5 -36.5t-36.5 -14.5zM777 604h-530q-28 0 -48 -20t-20 -49v-303v-191
q0 -29 20 -49t48 -20h530q28 0 48 20t20 49v494q0 29 -20 49t-48 20zM213 41v139l86 89q1 2 3 2t3 -2l146 -147q12 -11 27 -11q18 0 27 11l41 41q2 2 3.5 2t3.5 -2l152 -157h-458q-14 0 -24 10t-10 25zM811 41q0 -15 -10 -25t-24 -10h-26q0 1 -1 2t-1 2l-172 177
q-12 12 -27 12q-18 0 -28 -12l-41 -41q-1 -1 -3 -1t-4 1l-145 147q-12 12 -27 12q-18 0 -27 -12l-62 -63v2v303q0 15 10 25t24 10h530q14 0 24 -10t10 -25v-494z" />
    <glyph glyph-name="M" unicode="M" 
d="M416 629h192q92 0 170.5 -45.5t124.5 -124.5t46 -171t-46 -171t-124.5 -124.5t-170.5 -45.5h-192q-92 0 -170.5 45.5t-124.5 124.5t-46 171t45.5 171t124 124.5t171.5 45.5z" />
    <glyph glyph-name="N" unicode="N" 
d="M941 626q-5 -5 -12 -5t-12 5l-75 76v-256q0 -7 -5 -12t-12 -5t-12 5t-5 12v255l-75 -75q-5 -5 -12 -5t-12 5t-5 12t5 12l92 93q10 10 24 10t24 -10l92 -93q5 -5 5 -12t-5 -12zM710 528h-82q-7 0 -12 5t-5 12t5 12t12 5h82q7 0 12 -5t5 -12t-5 -12t-12 -5zM546 528h-82
q-7 0 -12 5t-5 12t5 12t12 5h82q7 0 12 -5t5 -12t-5 -12t-12 -5zM383 528h-82q-7 0 -12 5t-5 12t5 12t12 5h82q7 0 12 -5t5 -12t-5 -12t-12 -5zM710 381h-82q-7 0 -12 5t-5 12t5 12t12 5h82q7 0 12 -5t5 -12t-5 -12t-12 -5zM546 381h-82q-7 0 -12 5t-5 12t5 12t12 5h82
q7 0 12 -5t5 -12t-5 -12t-12 -5zM383 381h-82q-7 0 -12 5t-5 12t5 12t12 5h82q7 0 12 -5t5 -12t-5 -12t-12 -5zM546 233h-82q-7 0 -12 5t-5 12.5t5 12.5t12 5h82q7 0 12 -5t5 -12.5t-5 -12.5t-12 -5zM710 233h-82q-7 0 -12 5t-5 12.5t5 12.5t12 5h82q7 0 12 -5t5 -12.5
t-5 -12.5t-12 -5zM383 233h-82q-7 0 -12 5t-5 12.5t5 12.5t12 5h82q7 0 12 -5t5 -12.5t-5 -12.5t-12 -5zM612 675h-361q-20 0 -34 -14t-14 -34v-459q0 -20 14 -34.5t34 -14.5h508q20 0 34.5 14.5t14.5 34.5v147q0 7 5 12t12 5t12 -5t5 -12v-147q0 -34 -24 -58.5t-59 -24.5
h-508q-34 0 -58 24.5t-24 58.5v459q0 34 24 58t58 24h361q7 0 12 -5t5 -12t-5 -12t-12 -5z" />
    <glyph glyph-name="O" unicode="O" 
d="M941 168q-5 5 -12 5t-12 -5l-75 -76v256q0 7 -5 12t-12 5t-12 -5t-5 -12v-255l-75 75q-5 5 -12 5t-12 -5t-5 -12t5 -12l92 -92q10 -10 24 -10t24 9l92 93q5 5 5 12t-5 12zM710 266h-82q-7 0 -12 -5t-5 -12t5 -12t12 -5h82q7 0 12 5t5 12t-5 12t-12 5zM546 266h-82
q-7 0 -12 -5t-5 -12t5 -12t12 -5h82q7 0 12 5t5 12t-5 12t-12 5zM383 266h-82q-7 0 -12 -5t-5 -12t5 -12t12 -5h82q7 0 12 5t5 12t-5 12t-12 5zM710 414h-82q-7 0 -12 -5t-5 -12.5t5 -12.5t12 -5h82q7 0 12 5t5 12.5t-5 12.5t-12 5zM546 414h-82q-7 0 -12 -5t-5 -12.5
t5 -12.5t12 -5h82q7 0 12 5t5 12.5t-5 12.5t-12 5zM383 414h-82q-7 0 -12 -5t-5 -12.5t5 -12.5t12 -5h82q7 0 12 5t5 12.5t-5 12.5t-12 5zM546 561h-82q-7 0 -12 -5t-5 -12t5 -12t12 -5h82q7 0 12 5t5 12t-5 12t-12 5zM710 561h-82q-7 0 -12 -5t-5 -12t5 -12t12 -5h82
q7 0 12 5t5 12t-5 12t-12 5zM383 561h-82q-7 0 -12 -5t-5 -12t5 -12t12 -5h82q7 0 12 5t5 12t-5 12t-12 5zM612 119h-361q-20 0 -34 14.5t-14 34.5v459q0 20 14 34t34 14h508q20 0 34.5 -14t14.5 -34v-148q0 -7 5 -12t12 -5t12 5t5 12v148q0 34 -24 58t-59 24h-508
q-34 0 -58 -24t-24 -58v-459q0 -34 24 -58.5t58 -24.5h361q7 0 12 5t5 12t-5 12t-12 5z" />
    <glyph glyph-name="X" unicode="X" 
d="M676 97h-369q-7 0 -10.5 11.5t-0.5 23t11 11.5q24 0 42.5 54t25.5 108l7 55v3l-30 27q-2 -10 -2 -30q-6 -62 -20 -116.5t-26 -68.5q-24 -2 -34 -25q-7 -16 -7 -31q0 -25 13 -41.5t33 -16.5h138q0 -27 19.5 -47t47.5 -20q27 0 46.5 19.5t19.5 47.5h135zM512 30
q-13 0 -22.5 10t-9.5 23h64q0 -14 -9.5 -23.5t-22.5 -9.5zM512 489q60 0 95 -34.5t35 -94.5q7 -57 20 -111l48 -45q-24 62 -34 157q-1 75 -45.5 119t-118.5 44q-68 0 -113 -40l26 -22q35 27 87 27zM828 51l-534 484q-6 6 -12.5 6t-11.5 -6q-11 -11 1 -23l536 -485
q5 -5 12 -5t12 5q9 12 -3 24z" />
    <glyph glyph-name="x" unicode="x" 
d="M582 546q51 0 88 -37t37 -88q0 -17 17 -17q6 0 11.5 5.5t5.5 11.5q0 65 -47 112t-112 47q-17 0 -17 -17t17 -17zM756 151q-11 24 -34 26q-12 14 -26 68.5t-22 115.5q0 74 -44 118.5t-118 44.5t-118.5 -44t-45.5 -119q-6 -61 -20 -116t-26 -68q-24 -3 -34 -26
q-7 -15 -7 -30q0 -26 13.5 -42t32.5 -16h138q0 -28 20 -47.5t47 -19.5t47 19.5t20 47.5h138q20 0 33 16t13 42q0 17 -7 30zM512 30q-13 0 -22.5 10t-9.5 23h64q0 -13 -9.5 -23t-22.5 -10zM717 97h-410q-7 0 -10.5 11.5t-0.5 23t11 11.5q24 0 42.5 54t25.5 108l7 55
q0 60 35 94.5t95 34.5t95 -34.5t35 -94.5q0 -3 0.5 -8t3.5 -20l4 -28q3 -15 7 -34.5t8 -36.5t10 -34t12.5 -29t14 -19.5t15.5 -7.5t11 -11.5t-0.5 -23t-10.5 -11.5z" />
  </font>
</defs>
</svg>
